Ek Tha Tiger (2012) - All Music Video - 1080p - BluRay - x264 - DTS - 5.1CH - ESubs [DDR] by {AFIQUR}

Seeder: 0    Peer: 0    completed: 35   Size: 1.21 GB
Uploaded by afiqur in Hindi Music Video on 01/12/2012 06:57 AM
1 user thanked for this torrent
Ek Tha Tiger (2012) - All Music Video - 1080p - BluRay - x264 - DTS - 5.1CH - ESubs [DDR]

















































Banjaara (Ek Tha Tiger) - 1080p - BluRay - x264 - DTS - 5.1CH



















































General
Unique ID                                : 206024261997760374012953998846058978260 (0x9AFED45D129CE32BAB8E9EB135EA5BD4)
Complete name                            : Banjaara (Ek Tha Tiger) - 1080p - BluRay - x264 - DTS - 5.1CH.mkv
Format                                   : Matroska
Format version                           : Version 2
File size                                : 301 MiB
Duration                                 : 3mn 41s
Overall bit rate                         : 11.4 Mbps
Encoded date                             : UTC 2012-12-01 06:45:01

Video
ID                                       : 1
Format                                   : AVC
Format/Info                              : Advanced Video Codec
Format profile                           : [email protected]
Format settings, CABAC                   : No
Format settings, ReFrames                : 1 frame
Format settings, GOP                     : M=1, N=12
Muxing mode                              : Header stripping
Codec ID                                 : V_MPEG4/ISO/AVC
Duration                                 : 3mn 41s
Bit rate                                 : 9 700 Kbps
Width                                    : 1 920 pixels
Height                                   : 816 pixels
Display aspect ratio                     : 2.35:1
Frame rate mode                          : Constant
Frame rate                               : 24.000 fps
Color space                              : YUV
Chroma subsampling                       : 4:2:0
Bit depth                                : 8 bits
Scan type                                : Progressive
Bits/(Pixel*Frame)                       : 0.258
Stream size                              : 256 MiB (85%)
Language                                 : Hindi
Default                                  : Yes
Forced                                   : No

Audio
ID                                       : 3
Format                                   : DTS
Format/Info                              : Digital Theater Systems
Mode                                     : 16
Format settings, Endianness              : Big
Muxing mode                              : Header stripping
Codec ID                                 : A_DTS
Duration                                 : 3mn 41s
Bit rate mode                            : Constant
Bit rate                                 : 1 509 Kbps
Channel(s)                               : 6 channels
Channel positions                        : Front: L C R, Side: L R, LFE
Sampling rate                            : 48.0 KHz
Bit depth                                : 24 bits
Compression mode                         : Lossy
Delay relative to video                  : 3ms
Stream size                              : 39.8 MiB (13%)
Title                                    : DDR
Language                                 : Hindi
Default                                  : Yes
Forced                                   : No

Text
ID                                       : 2
Format                                   : UTF-8
Codec ID                                 : S_TEXT/UTF8
Codec ID/Info                            : UTF-8 Plain Text
Default                                  : Yes
Forced                                   : No




















Laapata (Ek Tha Tiger) - 1080p - BluRay - x264 - DTS - 5.1CH
















































General
Unique ID                                : 221677487644278094274160918873607452864 (0xA6C587F91F7A2D89BFF0DBF408CF38C0)
Complete name                            : Laapata (Ek Tha Tiger) - 1080p - BluRay - x264 - DTS - 5.1CH.mkv
Format                                   : Matroska
Format version                           : Version 2
File size                                : 349 MiB
Duration                                 : 4mn 13s
Overall bit rate                         : 11.6 Mbps
Encoded date                             : UTC 2012-12-01 06:45:27

Video
ID                                       : 1
Format                                   : AVC
Format/Info                              : Advanced Video Codec
Format profile                           : [email protected]
Format settings, CABAC                   : No
Format settings, ReFrames                : 1 frame
Format settings, GOP                     : M=1, N=12
Muxing mode                              : Header stripping
Codec ID                                 : V_MPEG4/ISO/AVC
Duration                                 : 4mn 13s
Bit rate                                 : 9 829 Kbps
Width                                    : 1 920 pixels
Height                                   : 816 pixels
Display aspect ratio                     : 2.35:1
Frame rate mode                          : Constant
Frame rate                               : 24.000 fps
Color space                              : YUV
Chroma subsampling                       : 4:2:0
Bit depth                                : 8 bits
Scan type                                : Progressive
Bits/(Pixel*Frame)                       : 0.261
Stream size                              : 297 MiB (85%)
Language                                 : Hindi
Default                                  : Yes
Forced                                   : No

Audio
ID                                       : 3
Format                                   : DTS
Format/Info                              : Digital Theater Systems
Mode                                     : 16
Format settings, Endianness              : Big
Muxing mode                              : Header stripping
Codec ID                                 : A_DTS
Duration                                 : 4mn 13s
Bit rate mode                            : Constant
Bit rate                                 : 1 509 Kbps
Channel(s)                               : 6 channels
Channel positions                        : Front: L C R, Side: L R, LFE
Sampling rate                            : 48.0 KHz
Bit depth                                : 24 bits
Compression mode                         : Lossy
Delay relative to video                  : 5ms
Stream size                              : 45.6 MiB (13%)
Title                                    : DDR
Language                                 : Hindi
Default                                  : Yes
Forced                                   : No

Text
ID                                       : 2
Format                                   : UTF-8
Codec ID                                 : S_TEXT/UTF8
Codec ID/Info                            : UTF-8 Plain Text
Default                                  : Yes
Forced                                   : No


















Mashallah (Ek Tha Tiger) - 1080p - BluRay - x264 - DTS - 5.1CH

















































General
Unique ID                                : 218624963108493344189313394220810395600 (0xA479A2E4D3AA9A139306DE678EE45FD0)
Complete name                            : Mashallah (Ek Tha Tiger) - 1080p - BluRay - x264 - DTS - 5.1CH.mkv
Format                                   : Matroska
Format version                           : Version 2
File size                                : 390 MiB
Duration                                 : 4mn 47s
Overall bit rate                         : 11.4 Mbps
Encoded date                             : UTC 2012-12-01 06:52:28

Video
ID                                       : 1
Format                                   : AVC
Format/Info                              : Advanced Video Codec
Format profile                           : [email protected]
Format settings, CABAC                   : No
Format settings, ReFrames                : 1 frame
Format settings, GOP                     : M=1, N=12
Muxing mode                              : Header stripping
Codec ID                                 : V_MPEG4/ISO/AVC
Duration                                 : 4mn 47s
Bit rate                                 : 9 646 Kbps
Width                                    : 1 920 pixels
Height                                   : 816 pixels
Display aspect ratio                     : 2.35:1
Frame rate mode                          : Constant
Frame rate                               : 24.000 fps
Color space                              : YUV
Chroma subsampling                       : 4:2:0
Bit depth                                : 8 bits
Scan type                                : Progressive
Bits/(Pixel*Frame)                       : 0.257
Stream size                              : 331 MiB (85%)
Language                                 : Hindi
Default                                  : Yes
Forced                                   : No

Audio
ID                                       : 3
Format                                   : DTS
Format/Info                              : Digital Theater Systems
Mode                                     : 16
Format settings, Endianness              : Big
Muxing mode                              : Header stripping
Codec ID                                 : A_DTS
Duration                                 : 4mn 47s
Bit rate mode                            : Constant
Bit rate                                 : 1 509 Kbps
Channel(s)                               : 6 channels
Channel positions                        : Front: L C R, Side: L R, LFE
Sampling rate                            : 48.0 KHz
Bit depth                                : 24 bits
Compression mode                         : Lossy
Delay relative to video                  : 6ms
Stream size                              : 51.7 MiB (13%)
Title                                    : DDR
Language                                 : Hindi
Default                                  : Yes
Forced                                   : No

Text
ID                                       : 2
Format                                   : UTF-8
Codec ID                                 : S_TEXT/UTF8
Codec ID/Info                            : UTF-8 Plain Text
Default                                  : Yes
Forced                                   : No






















Saiyaara (Ek Tha Tiger) - 1080p - BluRay - x264 - DTS - 5.1CH






















































General
Unique ID                                : 182197078710105472334578499297835491157 (0x8911E18709BD3DF38F525916B2C41F55)
Complete name                            : Saiyaara (Ek Tha Tiger) - 1080p - BluRay - x264 - DTS - 5.1CH.mkv
Format                                   : Matroska
Format version                           : Version 2
File size                                : 202 MiB
Duration                                 : 2mn 22s
Overall bit rate                         : 11.9 Mbps
Encoded date                             : UTC 2012-12-01 06:49:48

Video
ID                                       : 1
Format                                   : AVC
Format/Info                              : Advanced Video Codec
Format profile                           : [email protected]
Format settings, CABAC                   : No
Format settings, ReFrames                : 1 frame
Format settings, GOP                     : M=1, N=12
Muxing mode                              : Header stripping
Codec ID                                 : V_MPEG4/ISO/AVC
Duration                                 : 2mn 22s
Bit rate                                 : 10.1 Mbps
Width                                    : 1 920 pixels
Height                                   : 816 pixels
Display aspect ratio                     : 2.35:1
Frame rate mode                          : Constant
Frame rate                               : 24.000 fps
Color space                              : YUV
Chroma subsampling                       : 4:2:0
Bit depth                                : 8 bits
Scan type                                : Progressive
Bits/(Pixel*Frame)                       : 0.269
Stream size                              : 172 MiB (85%)
Language                                 : Hindi
Default                                  : Yes
Forced                                   : No

Audio
ID                                       : 3
Format                                   : DTS
Format/Info                              : Digital Theater Systems
Mode                                     : 16
Format settings, Endianness              : Big
Muxing mode                              : Header stripping
Codec ID                                 : A_DTS
Duration                                 : 2mn 22s
Bit rate mode                            : Constant
Bit rate                                 : 1 509 Kbps
Channel(s)                               : 6 channels
Channel positions                        : Front: L C R, Side: L R, LFE
Sampling rate                            : 48.0 KHz
Bit depth                                : 24 bits
Compression mode                         : Lossy
Delay relative to video                  : 8ms
Stream size                              : 25.6 MiB (13%)
Title                                    : DDR
Language                                 : Hindi
Default                                  : Yes
Forced                                   : No

Text
ID                                       : 2
Format                                   : UTF-8
Codec ID                                 : S_TEXT/UTF8
Codec ID/Info                            : UTF-8 Plain Text
Default                                  : Yes
Forced                                   : No

























































Name
Size
Mashallah (Ek Tha Tiger) - 1080p - BluRay - x264 - DTS - 5.1CH.mkv
Size:390.18 MB
Laapata (Ek Tha Tiger) - 1080p - BluRay - x264 - DTS - 5.1CH.mkv
Size:349.37 MB
Banjaara (Ek Tha Tiger) - 1080p - BluRay - x264 - DTS - 5.1CH.mkv
Size:301.41 MB
Saiyaara (Ek Tha Tiger) - 1080p - BluRay - x264 - DTS - 5.1CH.mkv
Size:201.67 MB
Vai eitar song gula ki full ase......
smile1.gif
seed pls
Torrent Name
Size
Size:681.35 MB
Added:3 months ago
1
0