Ethan Hawke :: BEFORE SUNRISE Trilogy [1995~2013] << Before Sunrise 8·0 + Before Sunset 8·0 + Before Midnight 8·3 >> || BRRip || by SAMHAWKS

Seeder: 2    Peer: 0    completed: 2   Size: 2.17 GB
Uploaded by SAMHAWKS in Movie Pack / Box Set on 06/10/2013 02:54 PM
9 users thanked for this torrent
Before Sunrise Trilogy
[1995 2004 2013]


Starring:
Ethan Hawke | Julie Delpy


==========================================================
Before Sunrise [1995]
==========================================================










STORYLINE: American tourist Jesse and French student Celine meet by chance on the train from Budapest to Vienna. Sensing that they are developing a connection, Jesse asks Celine to spend the day with him in Vienna, and she agrees. Passing the time before his scheduled flight the next morning. How do two perfect strangers connect so intimately over the course of a single day? What is that special thing that bonds two people so strongly? As their bond turns to love, what will happen to them the next morning when Jesse flies away?


Spoiler:show
General
Complete name                    : BEFORE SUNRISE Trilogy [SAMHAWKS]1. Before Sunrise [1995]Before Sunrise [1995].mp4
Format                           : MPEG-4
Format profile                   : Base Media
Codec ID                         : isom
File size                        : 803 MiB
Duration                         : 1h 40mn
Overall bit rate                 : 1 113 Kbps
Encoded date                     : UTC 2013-06-23 08:49:33
Tagged date                      : UTC 2013-06-23 08:49:33

Video
ID                               : 1
Format                           : AVC
Format/Info                      : Advanced Video Codec
Format profile                   : [email protected]
Format settings, CABAC           : Yes
Format settings, ReFrames        : 4 frames
Format settings, GOP             : M=5, N=45
Codec ID                         : avc1
Codec ID/Info                    : Advanced Video Coding
Duration                         : 1h 40mn
Bit rate mode                    : Variable
Bit rate                         : 985 Kbps
Maximum bit rate                 : 3 277 Kbps
Width                            : 1 270 pixels
Height                           : 720 pixels
Display aspect ratio             : 16:9
Frame rate mode                  : Constant
Frame rate                       : 23.976 fps
Color space                      : YUV
Chroma subsampling               : 4:2:0
Bit depth                        : 8 bits
Scan type                        : Progressive
Bits/(Pixel*Frame)               : 0.045
Stream size                      : 711 MiB (88%)
Writing library                  : x264 core 133 r2334 a3ac64b
Encoded date                     : UTC 2013-06-23 08:01:32
Tagged date                      : UTC 2013-06-23 08:50:41

Audio
ID                               : 2
Format                           : AAC
Format/Info                      : Advanced Audio Codec
Format profile                   : LC
Codec ID                         : 40
Duration                         : 1h 40mn
Bit rate mode                    : Variable
Bit rate                         : 124 Kbps
Maximum bit rate                 : 137 Kbps
Channel(s)                       : 2 channels
Channel positions                : Front: L R
Sampling rate                    : 48.0 KHz
Compression mode                 : Lossy
Stream size                      : 89.6 MiB (11%)
Language                         : English
Encoded date                     : UTC 2013-06-23 07:33:34
Tagged date                      : UTC 2013-06-23 08:50:41






==========================================================
Before Sunset [2004]
==========================================================










STORYLINE: Early thirty-something American Jesse Wallace is in a Paris bookstore, the last stop on a tour to promote his best selling book, This Time. Although he is vague to reporters about the source material for the book, it is about his chance encounter nine years earlier on June 15-16, 1994 with a Parisienne named Celine, and the memorable and romantic day and evening they spent together in Vienna. At the end of their encounter at the Vienna train station, which is also how the book ends, they, not providing contact information to the other, vowed to meet each other again in exactly six months at that very spot. As the media scrum at the bookstore nears its conclusion, Jesse spots Celine in the crowd, she who only found out about the book when she earlier saw his photograph promoting this public appearance. Much like their previous encounter, Jesse and Celine, who is now an environmental activist, decide to spend time together until he is supposed to catch his flight back to New York, this ...


Spoiler:show
General
Complete name                    : BEFORE SUNRISE Trilogy [SAMHAWKS]2. Before Sunset [2004]Before Sunset [2004].mp4
Format                           : MPEG-4
Format profile                   : Base Media
Codec ID                         : isom
File size                        : 600 MiB
Duration                         : 1h 20mn
Overall bit rate                 : 1 045 Kbps
Encoded date                     : UTC 2013-01-04 09:09:00
Tagged date                      : UTC 2013-01-04 09:09:00

Video
ID                               : 1
Format                           : AVC
Format/Info                      : Advanced Video Codec
Format profile                   : [email protected]
Format settings, CABAC           : Yes
Format settings, ReFrames        : 7 frames
Codec ID                         : avc1
Codec ID/Info                    : Advanced Video Coding
Duration                         : 1h 20mn
Bit rate mode                    : Variable
Bit rate                         : 950 Kbps
Maximum bit rate                 : 3 066 Kbps
Width                            : 1 280 pixels
Height                           : 720 pixels
Display aspect ratio             : 16:9
Frame rate mode                  : Constant
Frame rate                       : 23.976 fps
Color space                      : YUV
Chroma subsampling               : 4:2:0
Bit depth                        : 8 bits
Scan type                        : Progressive
Bits/(Pixel*Frame)               : 0.043
Stream size                      : 545 MiB (91%)
Writing library                  : x264 core 129 r2230 1cffe9f
Encoded date                     : UTC 2013-01-04 09:09:00
Tagged date                      : UTC 2013-01-04 09:09:24

Audio
ID                               : 2
Format                           : AAC
Format/Info                      : Advanced Audio Codec
Format profile                   : LC
Codec ID                         : 40
Duration                         : 1h 20mn
Bit rate mode                    : Variable
Bit rate                         : 92.0 Kbps
Maximum bit rate                 : 102 Kbps
Channel(s)                       : 2 channels
Channel positions                : Front: L R
Sampling rate                    : 48.0 KHz
Compression mode                 : Lossy
Stream size                      : 52.8 MiB (9%)
Language                         : English
Encoded date                     : UTC 2013-01-04 09:09:20
Tagged date                      : UTC 2013-01-04 09:09:24






==========================================================
Before Midnight [2013]
==========================================================










STORYLINE: It has been nine years since we last met Jesse and Celine, the French-American couple who once met on a train in Vienna. They now live in Paris with twin daughters, but have spent a summer in Greece on the invitation of an author colleague of Jesse's. When the vacation is over and Jesse must send his teenage son off to the States, he begins to question his life decisions, and his relationship with Celine is at risk.


Spoiler:show
General
Complete name                    : BEFORE SUNRISE Trilogy [SAMHAWKS]3. Before Midnight [2013]Before Midnight [2013].mp4
Format                           : MPEG-4
Format profile                   : Base Media
Codec ID                         : isom
File size                        : 815 MiB
Duration                         : 1h 48mn
Overall bit rate                 : 1 046 Kbps
Encoded date                     : UTC 2013-10-04 10:16:30
Tagged date                      : UTC 2013-10-04 10:16:30

Video
ID                               : 1
Format                           : AVC
Format/Info                      : Advanced Video Codec
Format profile                   : [email protected]
Format settings, CABAC           : Yes
Format settings, ReFrames        : 5 frames
Codec ID                         : avc1
Codec ID/Info                    : Advanced Video Coding
Duration                         : 1h 48mn
Bit rate mode                    : Variable
Bit rate                         : 948 Kbps
Maximum bit rate                 : 4 145 Kbps
Width                            : 1 280 pixels
Height                           : 688 pixels
Display aspect ratio             : 1.860
Frame rate mode                  : Constant
Frame rate                       : 23.976 fps
Color space                      : YUV
Chroma subsampling               : 4:2:0
Bit depth                        : 8 bits
Scan type                        : Progressive
Bits/(Pixel*Frame)               : 0.045
Stream size                      : 738 MiB (91%)
Writing library                  : x264 core 132 r2 76a5c3a
Encoded date                     : UTC 2013-10-04 10:16:30
Tagged date                      : UTC 2013-10-04 10:16:41
Color primaries                  : BT.709-5, BT.1361, IEC 61966-2-4, SMPTE RP177
Matrix coefficients              : BT.709-5, BT.1361, IEC 61966-2-4 709, SMPTE RP177

Audio
ID                               : 2
Format                           : AAC
Format/Info                      : Advanced Audio Codec
Format profile                   : LC
Codec ID                         : 40
Duration                         : 1h 48mn
Bit rate mode                    : Variable
Bit rate                         : 93.8 Kbps
Maximum bit rate                 : 101 Kbps
Channel(s)                       : 2 channels
Channel positions                : Front: L R
Sampling rate                    : 48.0 KHz
Compression mode                 : Lossy
Stream size                      : 73.1 MiB (9%)
Language                         : English
Encoded date                     : UTC 2013-10-04 10:16:39
Tagged date                      : UTC 2013-10-04 10:16:41






Name
Size
1. Before Sunrise [1995]/Before Sunrise [1995].mp4
Size:803.00 MB
1. Before Sunrise [1995]/Before Sunrise [1995].srt
Size:104.97 KB
2. Before Sunset [2004]/Before Sunset [2004].mp4
Size:600.14 MB
2. Before Sunset [2004]/Before Sunset [2004].srt
Size:110.50 KB
3. Before Midnight [2013]/Before Midnight [2013].mp4
Size:814.64 MB
3. Before Midnight [2013]/Before Midnight [2013].srt
Size:146.99 KB
Thanx
Nice Work Keep It Up.......
shoot2.gifshoot2.gifw000t.gifw000t.gifthumbsup.gifthumbsup.gif